Приветствую Вас Гость
Музыка в Lossless качестве.

Прослушивание музыки он-лайн, с возможностью скачивания в APE, FLAC, AIFF, WAV и  других lossless форматах

A B C D E F G H I J K L M N O P Q R S T U V W X Y Z (0-9)
А Б В Г Д Е Ж З И К Л М Н О П Р С Т У Ф Х Ц Ч Ш Щ Ы Э Ю Я
Музыкальные видео клипы
Главная » 2017 » Июнь » 4 » Motörhead - Killed By Death Live, HD (1080p), StageFright Dusseldorf, Germany (2004). mp4 HD 1080
15:27
Motörhead - Killed By Death Live, HD (1080p), StageFright Dusseldorf, Germany (2004). mp4 HD 1080
Motörhead - Killed By Death Live, HD (1080p), StageFright Dusseldorf,
 
Format                                   : MPEG-4
Format profile                           : Base Media
Codec ID                                 : isom
File size                                : 151 MiB
Duration                                 : 5mn 8s
Overall bit rate                         : 4 099 Kbps

Video
ID                                       : 1
Format                                   : AVC
Format/Info                              : Advanced Video Codec
Format profile                           : High@L4.0
Format settings, CABAC                   : Yes
Format settings, ReFrames                : 3 frames
Codec ID                                 : avc1
Codec ID/Info                            : Advanced Video Coding
Duration                                 : 5mn 8s
Bit rate                                 : 3 967 Kbps
Width                                    : 1 920 pixels
Height                                   : 1 080 pixels
Display aspect ratio                     : 16:9
Frame rate mode                          : Variable
Frame rate                               : 23.976 fps
Minimum frame rate                       : 23.974 fps
Maximum frame rate                       : 23.981 fps
Color space                              : YUV
Chroma subsampling                       : 4:2:0
Bit depth                                : 8 bits
Scan type                                : Progressive
Bits/(Pixel*Frame)                       : 0.080
Stream size                              : 146 MiB (97%)

Audio
ID                                       : 2
Format                                   : AAC
Format/Info                              : Advanced Audio Codec
Format profile                           : LC
Codec ID                                 : 40
Duration                                 : 5mn 8s
Bit rate mode                            : Constant
Bit rate                                 : 126 Kbps
Channel(s)                               : 2 channels
Channel positions                        : Front: L R
Sampling rate                            : 44.1 KHz
Compression mode                         : Lossy
Stream size                              : 4.62 MiB (3%)

ПРЕДПРОСМОТР НИЗКОЕ КАЧЕСТВО

 
 

СКАЧАТЬ Motörhead - Killed By Death Live, HD (1080p) И ПОДАРИТЬ 2 РУБЛЯ

Текст и перевод песни Motörhead - Killed By Death
 
Killed By Death

If you squeeze my lizard,
I'll put my snake on you.
I'm a romantic adventure and
I'm a reptile, too.  
But it don't make no difference,
'cos I ain't gonna be, easy, easy.
The only time I'm gonna be easy's when
I'm Killed by death
Killed by death
Killed by death
Killed by death
  I'm a lone wolf ligger,
but I ain't no pretty boy.
I'm a backbone shiver
and I'm a bundle of joy
  But it don't make no difference,
'cos I ain't gonna be, easy, easy.
The only time I'm gonna be easy's when I'm
Killed by death
Killed by death
Killed by death
Killed by death
Когда смерть заберёт меня

Если ты тронешь мою ящерицу,
Я натравлю на тебя свою змею.
Я - это романтические приключение,
Я тоже рептилия.
 
Но это ничего не меняет,
Потому что я не собираюсь соглашаться на всё,
Я буду согласен на всё только тогда, когда
Смерть заберёт меня,
Смерть заберёт меня,
Смерть заберёт меня,
Смерть заберёт меня.
 
Я одинокий волк,
Но я не красавчик.
Я дрожь, что пробегает по спине.
Я весельчак.
 
Но это ничего не меняет,
Потому что я не собираюсь соглашаться на всё,
Я буду согласен на всё только тогда, когда
Смерть заберёт меня,
Смерть заберёт меня,
Смерть заберёт меня,
Смерть заберёт меня.


ПОХОЖИЕ ЗАПИСИ



Соответствие файла указанному формату и качеству проверено программой



Вирусы отсутствуют. Файл проверен программой





Категория: Музыкальные видео клипы | Просмотров: 2148 | Добавил: rockboy112 | Теги: скачать, смотреть, Killed, Motörhead, live, HD, death | Рейтинг: 2.1/22
Всего комментариев: 0
avatar

Вход на сайт
Поиск по сайту
Новое на сайте
Ваша реклама
Наш опрос
Добавлять ли на сайт музыку 60-90 гг?
Всего ответов: 13
Топ прослушиваний
Наш опрос
Оцените мой сайт
Всего ответов: 12
Топ прослушиваний за неделю
Наш опрос
Как Вы узнали о сайте?
Всего ответов: 17
Спонсоры сайта


Услуги по обмену электронных валют
Статистика

Рейтинг@Mail.ru



Онлайн всего: 9
Гостей: 9
Пользователей: 0
Сегодня нас посетили
rockboy112